#TITLE:ESTB_32;
#SUBTITLE:;
#ARTIST:Unknown artist;
#TITLETRANSLIT:;
#SUBTITLETRANSLIT:;
#ARTISTTRANSLIT:;
#CREDIT:;
#BANNER:;
#BACKGROUND:;
#LYRICSPATH:;
#CDTITLE:;
#MUSIC:ESTB_32.MP3;
#OFFSET:-0.300;
#SAMPLESTART:100.000;
#SAMPLELENGTH:12.000;
#SELECTABLE:YES;
#BPMS:0.000=192.500;
#STOPS:;
#BGCHANGES:0.000=Lufia=1.000=0=0=1,
99999=-nosongbg-=1.000=0=0=0 // don't automatically add -songbackground-
;
// cache tags:
#FIRSTBEAT:0.000;
#LASTBEAT:960.000;
#SONGFILENAME:Songs/My Creations/ESTB_32/ESTB_32.sm;
#HASMUSIC:1;
#HASBANNER:0;
#MUSICLENGTH:300.664;
// end cache tags

//---------------dance-single - ----------------
#NOTES:
     dance-single:
     :
     Challenge:
     1:
     0.740,1.000,1.000,0.572,0.000,975.000,409.000,172.000,0.000,2.000:
1000
1001
1000
1001
,
1001
0100
1010
0101
,
1001
1010
0100
1001
,
0100
1010
0101
0010
,
1001
1010
0101
1001
,
2100
0010
0100
3010
,
0001
1000
0001
1000
,
1001
0010
0101
1010
,
1001
0101
1010
0001
,
0010
0101
1000
0101
,
1001
0101
1010
0110
,
2010
0100
0010
3100
,
1000
0001
1100
0011
,
0110
0000
1000
1000
0100
0100
0110
0010
,
1001
1001
1000
0100
0100
0010
0010
1001
,
2001
0000
0002
0000
0000
0003
3000
0000
,
1000
0020
0100
0030
,
2002
0000
0000
3003
,
1001
0001
1010
0100
,
0220
0000
0000
0330
,
1000
1000
0001
0001
0010
0010
0100
0100
,
0110
0000
1000
1000
0100
0100
0010
0010
,
1001
1000
0101
0010
,
0002
2000
0000
3003
,
1000
0001
0010
1000
0100
0001
0010
0000
,
0110
0010
0000
0100
0010
0000
0100
0010
,
1001
0000
1001
0000
0010
1000
0100
0000
,
2002
0000
0000
3003
,
1000
1001
0010
0101
,
1001
0101
0010
1100
,
0110
0001
0101
0010
,
0020
2030
3200
0302
,
0003
1100
0010
0101
,
0201
1300
2020
3030
,
0110
2100
3001
1000
,
1001
1010
0220
0330
,
0001
0100
1010
0001
,
1001
0001
0010
0100
,
0110
1001
0010
0100
,
2020
0030
0200
3300
,
0002
1000
0010
0103
,
0202
2303
0020
3030
,
0110
1100
0001
1001
,
0210
0010
0010
0310
,
2001
0001
0001
3001
,
0001
1000
0100
0001
0010
1000
1000
0001
,
0010
1000
0001
0000
0010
1000
0001
0000
,
1000
0000
0100
0001
1100
0001
1100
0000
,
0001
0001
1000
0000
0001
0010
1000
0000
,
1001
1001
0110
0000
1001
1001
0110
0000
,
1001
1001
0110
0000
1001
1001
0110
0000
,
2001
0001
0001
0000
0001
0001
3001
0000
,
0120
0100
0100
0000
0100
0100
0130
0000
,
1001
0000
0101
0000
0010
0001
1001
1000
,
0010
2001
0010
3001
,
1000
0100
1100
1100
,
0001
0000
1000
0001
0001
0000
1000
0001
,
0001
1000
1000
1000
0001
0001
0000
0000
,
1000
1000
0000
0000
1000
1000
0000
0000
,
1001
0001
0001
0000
0100
0000
0000
0000
,
1001
1001
0001
0000
0120
0000
0000
0030
,
2000
3001
0101
1100
,
1001
0220
0330
2001
,
0100
0000
3001
0000
0011
0000
1000
0100
,
1000
0000
0001
0010
0101
0000
1100
0000
,
1000
0002
0103
1100
,
1001
0000
0220
0000
0330
0000
1001
1001
,
0100
0000
0001
1000
0011
0000
1000
0001
,
0100
0000
0010
1000
0011
0000
1000
0000
,
1002
0000
2000
0003
0001
0000
3001
0000
,
0110
2002
3003
0010
,
0201
0001
0001
0001
,
0301
1010
0001
0201
,
0001
0001
0001
0301
,
0110
0000
2002
0000
3003
0000
0110
1000
,
0101
0000
0001
1000
0011
0000
1001
0000
,
0101
0000
1010
0000
0001
1000
0001
0000
,
1000
0100
0000
0000
1000
0100
0000
0000
,
1001
0200
0010
0301
,
1001
1020
0100
1000
,
0100
0000
0030
0000
0001
1000
0010
0000
,
1001
1010
0101
1001
,
0100
1010
0100
1010
,
0002
1000
0003
1000
,
0110
0001
0100
0000
0010
0001
1010
0000
,
0110
0101
0100
1002
,
0010
0100
1000
0103
,
0110
0000
0101
0000
1010
0000
0110
1001
,
0100
0000
0010
1001
0100
1001
0010
0000
,
2000
0000
0001
0000
3000
1000
1001
0000
,
0110
1000
0100
0010
,
1002
1000
0100
0010
,
2003
0001
0100
3001
,
1000
0012
0100
0013
,
2001
0001
0001
0000
0001
0001
3001
0000
,
1001
1000
0001
0000
0010
0000
0100
0000
,
0110
0110
0110
0000
0110
0110
0110
0000
,
1002
0000
0010
0103
,
0110
0000
0001
0000
1000
0110
0001
0000
,
0220
0330
0001
1000
,
0002
0023
1000
0001
,
1000
0030
0100
1010
,
2002
0000
3003
0110
2002
0000
3003
0000
,
1001
0000
0001
0000
1100
0001
0100
0000
,
0220
0000
0330
1001
0220
0000
0330
0000
,
1000
0001
1010
0100
,
0110
1002
0100
0010
,
2003
0000
0100
3010
,
1000
1000
1000
0001
1000
1000
1000
0000
,
1001
0010
0101
0010
,
2002
0000
0000
3003
,
1001
1001
0011
0101
,
0220
0000
0000
0330
,
1000
0000
0001
1000
0010
1000
0100
1000
,
0110
0000
0000
0001
0100
0001
0000
0000
,
1001
0000
0000
0001
0100
0001
0100
0000
,
2002
3000
0000
1000
,
1000
0000
0103
1001
,
2002
0000
3003
1000
1000
0000
0000
0000
,
1001
1001
0000
0000
1010
0000
1000
0000
,
0220
0330
0102
0000
,
1003
0000
0001
0000
0110
1001
1001
0110
,
1001
1001
0110
0110
1001
1001
0110
0110
,
1001
0110
1001
0110
,
2002
3003
2002
3003
,
2020
3000
0000
1030
,
0001
1000
0000
1000
0001
0000
0000
0000
,
1000
0001
0000
0001
1000
0000
0000
0000
,
2001
0001
0100
0000
,
3001
0001
0001
0000
0100
0000
0000
0000
,
1001
1001
0110
0000
2002
0000
3003
0000
,
1001
1001
0110
0000
2002
0000
3003
0110
,
2002
3003
0220
0330
,
2002
3003
0220
0330
,
1002
0000
1003
0000
,
2001
0000
3001
0000
,
1001
1001
0001
0000
0101
0000
0000
0000
,
1001
0001
1100
1001
,
1010
0100
0011
1000
,
1010
0100
1010
0001
,
0101
0010
0101
1000
,
0010
0100
1010
2001
,
0000
0000
0010
3000
,
0002
0000
0100
0003
,
2000
0000
0100
3000
,
0001
1000
0001
1000
0010
0000
0001
0000
,
1001
0110
2002
0000
3003
0000
1001
0000
,
0110
1001
0220
0000
0330
0000
0110
0000
,
1010
2020
3030
1010
,
0101
0202
0303
0101
,
0110
0220
0330
0110
,
2002
0000
3003
0110
2002
0000
3003
0000
,
0001
1000
0001
0000
1000
0000
0001
0000
,
1000
0001
1000
0000
0001
0000
1000
0000
,
0001
1000
0001
0000
0100
0000
0001
0000
,
1000
0001
1000
0000
0101
0000
1000
0000
,
0001
1000
0001
0000
1100
0000
0001
0000
,
1000
0001
1000
0000
0001
0000
1010
0000
,
1001
0100
1001
0000
,
0110
1001
1001
1001
0110
0000
0000
0000
,
1002
0100
0010
0000
,
0000
0010
0100
1003
,
0101
0000
0010
0001
0010
0001
0010
0001
,
1010
0000
0100
1000
0100
1000
0100
0000
,
0001
0200
0010
1000
,
1000
0010
0300
0001
,
0011
0110
1100
0101
,
0220
0000
0000
0330
,
1002
0100
0010
0000
,
0000
0010
0100
1000
,
0103
0000
0010
0001
0010
0001
0010
0001
,
1010
0000
0100
1000
0100
1000
0100
0000
,
0001
0100
0020
1000
,
1000
0030
0100
0001
,
2002
0000
3003
0110
2002
0000
3003
0000
,
0220
0000
0330
1001
0220
0000
0330
0000
,
1001
0100
1010
1001
,
1001
0010
0101
1001
,
0121
1000
1000
1000
,
1030
0102
0100
0100
,
1003
0000
0100
0000
0010
0000
1001
0110
,
1001
0010
0101
1001
,
2002
0000
3003
0110
2002
0000
3003
0000
,
0220
0000
0330
1001
0220
0000
0330
0000
,
2001
0100
0010
0001
,
0001
0010
0100
3002
,
0100
1003
1010
1010
,
1010
0000
0101
1000
0101
1000
0101
0000
,
1001
0100
0010
1001
,
1001
0010
0100
1001
,
0010
0100
1001
0110
,
1001
0100
0001
0110
,
1010
0101
0110
1001
,
1001
0101
0000
0101
0000
0101
0000
1010
,
1010
1002
0100
0010
,
1003
1000
0100
0010
,
2001
0001
0001
3001
,
1000
0010
0101
0010
,
1001
1001
0110
0000
1001
1001
0110
0000
,
1001
1001
0110
0000
1001
1001
0110
0000
,
2001
0001
0001
0000
0001
0001
3001
0000
,
0120
0100
0000
0000
0100
0100
0030
0000
,
0101
0010
0001
0000
,
1001
0010
1000
0000
,
1001
0001
0101
0000
,
1001
0001
0101
0001
,
1000
0001
0101
1100
,
1001
0000
0220
0000
0330
0000
1001
0110
,
1001
0110
0001
0000
0101
0000
1001
0000
,
0110
2002
3003
0210
,
0000
0301
0011
1000
,
0200
0301
0011
1010
,
0100
0000
1010
0000
0001
0001
0101
0001
,
0101
0001
0001
0001
0011
0001
1001
0001
,
0101
1010
0001
0101
,
2010
0001
0010
3000
,
0102
1000
0100
0003
,
0200
0001
0001
0300
,
2000
0100
0100
3000
,
1002
0000
1000
0003
,
0002
1000
1000
0003
,
0202
0000
0000
0303
,
1001
0101
1001
1010
,
1001
0101
0010
0001
,
1001
1010
0101
1000
,
0100
0110
0001
0100
,
1001
1010
0101
1001
,
0100
0110
0100
0010
,
1001
1000
0001
1010
,
1001
0100
0010
0001
,
1001
0001
0100
0010
,
0100
0010
0001
0100
,
1001
1000
0101
0001
,
0100
0001
0100
1000
,
0001
1000
0001
0110
,
1000
0002
0010
0100
,
1000
0100
0010
0003
,
2000
0100
0010
0001
,
3000
0002
0010
0100
,
1003
0110
0000
0000
;

//---------------dance-single - Copied from----------------
#NOTES:
     dance-single:
     Copied from:
     Hard:
     1:
     0.561,0.715,0.955,0.466,0.000,754.000,287.000,140.000,0.000,0.000:
1000
0001
1000
0001
,
1001
0100
0010
0101
,
1001
1010
0100
1000
,
0100
0010
0001
0010
,
1001
1010
0101
1001
,
0100
0010
0100
0010
,
0001
1000
0001
1000
,
1001
0010
0100
0010
,
1001
0101
0010
0001
,
0010
0100
1000
0100
,
1001
0101
1010
0110
,
0010
0100
0010
0100
,
1000
0001
1100
0011
,
0110
1000
0100
0010
,
1001
1000
0100
0010
,
2001
0000
0000
3000
,
1000
0010
0100
0010
,
2002
0000
0000
3003
,
1001
0001
0010
0100
,
0220
0000
0000
0330
,
1000
0001
0010
0100
,
0110
1000
0100
0010
,
1001
1000
0100
0010
,
0002
0000
0000
0003
,
1000
0010
0100
0010
,
0220
0000
0000
0330
,
1001
0001
0010
0100
,
2002
0000
0000
3003
,
1000
0001
0010
0100
,
1001
0001
0010
0100
,
0110
0001
0100
0010
,
0020
0030
0200
0300
,
0001
1000
0010
0100
,
0202
0303
2020
3030
,
0110
0100
0001
1000
,
2002
3003
0220
0330
,
0001
0100
0010
0001
,
1001
0001
0010
0100
,
0110
0001
0010
0100
,
0020
0030
0200
0300
,
0001
1000
0010
0100
,
0202
0303
2020
3030
,
0110
0100
0001
1000
,
0220
0000
0000
0330
,
2002
0000
0000
3003
,
0001
0100
0010
1000
,
0010
0001
0010
0001
,
1000
0100
1100
1100
,
0001
1000
0001
1000
,
1001
0110
1001
0110
,
1001
0110
1001
0110
,
2002
0000
0000
3003
,
0220
0000
0000
0330
,
0001
0100
0010
1000
,
0010
0001
0010
0001
,
1000
0100
1100
1100
,
0001
1000
0001
1000
,
0001
0000
0001
0000
,
1000
0000
1000
0000
,
1001
0001
0100
0000
,
1001
0001
0100
0000
,
1000
0001
0101
1100
,
1001
0220
0330
1001
,
0100
0001
0011
1000
,
1000
0001
0101
1100
,
1000
0001
0101
1100
,
1001
0220
0330
1001
,
0100
0001
0011
1000
,
0100
0010
0011
1000
,
1001
0001
0101
1001
,
0110
2002
3003
0110
,
0101
0001
0011
1001
,
0101
1010
0001
0101
,
1001
0001
0101
1001
,
0110
2002
3003
0110
,
0101
0001
0011
1001
,
0101
1010
0001
0101
,
1000
0000
1000
0000
,
1001
0100
0010
0101
,
1001
1010
0100
1000
,
0100
0010
0001
0010
,
1001
1010
0101
1001
,
0100
0010
0100
0010
,
0001
1000
0001
1000
,
0110
0100
0010
1010
,
0110
0101
0100
1000
,
0010
0100
1000
0100
,
0110
0101
1010
0110
,
0100
0010
0100
0010
,
1000
0001
1000
0001
,
0110
1000
0100
0010
,
1001
1000
0100
0010
,
2000
0000
0000
3000
,
1000
0010
0100
0010
,
2002
0000
0000
3003
,
1001
0001
0010
0100
,
0220
0000
0000
0330
,
1000
0001
0010
0100
,
0110
0001
1000
0001
,
0220
0330
0001
1000
,
0002
0003
1000
0001
,
1000
0010
0100
0010
,
2002
3003
2002
3003
,
1001
0001
1100
0100
,
0220
0330
0220
0330
,
1000
0001
0010
0100
,
0110
1000
0100
0010
,
1001
1000
0100
0010
,
2000
0000
0000
3000
,
1000
0010
0100
0010
,
2002
0000
0000
3003
,
1001
0001
0010
0100
,
0220
0000
0000
0330
,
1000
0001
0010
0100
,
0110
0000
0100
0000
,
1001
0000
0100
0000
,
2000
3000
0000
1000
,
1000
0000
0100
0000
,
2002
3003
1000
0000
,
1001
0000
0010
0000
,
0220
0330
0100
0000
,
1000
0001
0110
1001
,
1001
0110
1001
0110
,
1001
0110
1001
0110
,
2002
0000
0000
3003
,
0220
0000
0000
0330
,
0001
0000
0001
0000
,
1000
0000
1000
0000
,
1001
0001
0100
0000
,
1001
0001
0100
0000
,
1001
0110
2002
3003
,
1001
0110
2002
3003
,
2002
3003
0220
0330
,
2002
3003
0220
0330
,
1000
0000
1000
0000
,
0001
0000
0001
0000
,
1001
0001
0100
0000
,
1001
0001
1000
1001
,
0010
0100
0010
1000
,
0010
0100
0010
0001
,
0100
0010
0100
1000
,
0010
0100
0010
1001
,
1000
1000
0010
1000
,
0001
0001
0100
0001
,
1000
1000
0100
1000
,
0001
0001
0010
0001
,
1001
2002
3003
1001
,
0110
0220
0330
0110
,
1010
2020
3030
1010
,
0101
0202
0303
0101
,
0110
0220
0330
0110
,
2002
3003
2002
3003
,
0001
0001
1000
0001
,
1000
1000
0001
1000
,
0001
0001
0100
0001
,
1000
1000
0100
1000
,
0001
0001
0100
0001
,
1000
1000
0001
1000
,
1001
0000
1001
0000
,
0110
0000
0110
0000
,
1000
0100
0010
0001
,
0001
0010
0100
1000
,
0101
0010
0010
0010
,
1010
0100
0100
0100
,
0001
0100
0010
1000
,
1000
0010
0100
0001
,
2002
0000
0000
3003
,
0220
0000
0000
0330
,
1000
0100
0010
0001
,
0001
0010
0100
1000
,
0101
0010
0010
0010
,
1010
0100
0100
0100
,
0001
0100
0010
1000
,
1000
0010
0100
0001
,
2002
3003
2002
3003
,
0220
0330
0220
0330
,
1001
0100
0010
1001
,
1001
0010
0100
1001
,
0101
1010
1010
1010
,
1010
0101
0101
0101
,
1001
0100
0010
1001
,
1001
0010
0100
1001
,
2002
3003
2002
3003
,
0220
0330
0220
0330
,
1001
0100
0010
1001
,
1001
0010
0100
1001
,
0101
1010
1010
1010
,
1010
0101
0101
0101
,
1001
0100
0010
1001
,
1001
0010
0100
1001
,
2020
0000
0000
0000
,
0000
0000
0000
0000
,
0000
0000
0000
0000
,
0000
0000
0000
3030
,
0110
1000
0100
0010
,
1001
1000
0100
0010
,
2000
0000
0000
3000
,
1000
0010
0100
0010
,
1001
0110
1001
0110
,
1001
0110
1001
0110
,
2002
0000
0000
3003
,
0220
0000
0000
0330
,
0001
0000
0001
0000
,
1000
0000
1000
0000
,
1001
0001
0100
0000
,
1001
0001
0100
0000
,
1000
0001
0101
1100
,
1001
0220
0330
1001
,
1001
0001
0101
1001
,
0110
2002
3003
0110
,
0100
0001
0011
1000
,
0100
0001
0011
1000
,
0100
0010
0001
0101
,
0101
0001
0011
1001
,
0101
1010
0001
0101
,
2000
0000
0000
3000
,
0002
0000
0000
0003
,
0202
0000
0000
0303
,
2200
0000
0000
3300
,
2002
0000
0000
3003
,
0002
0000
0000
0003
,
0202
0000
0000
0303
,
1001
0110
1001
0110
,
1001
0100
0010
0101
,
1001
1010
0100
1000
,
0100
0010
0001
0100
,
1001
1010
0101
1001
,
0100
0010
0100
0010
,
0001
1000
0001
1000
,
1001
0000
0010
0000
,
1001
0000
0100
0000
,
0100
0000
0001
0000
,
1001
0000
0101
0000
,
0100
0000
0100
0000
,
0001
0000
0001
0000
,
1000
0001
0010
0100
,
1000
0100
0010
0001
,
1000
0100
0010
0001
,
1000
0001
0010
0100
,
1001
0000
0000
0000
;

//---------------dance-single - Copied from Copied f----------------
#NOTES:
     dance-single:
     Copied from Copied f:
     Medium:
     1:
     0.434,0.596,0.582,0.339,0.000,636.000,175.000,102.000,0.000,0.000:
1001
0000
1001
0000
,
1001
0100
0010
0100
,
1001
0010
0100
1000
,
0100
0010
0001
0010
,
1001
0010
0100
1001
,
0100
0010
0100
0010
,
1001
1001
1001
1000
,
1001
0010
0100
0010
,
1001
1100
0010
0001
,
0010
0100
1000
0100
,
1001
0100
1010
0010
,
0010
0100
0010
0100
,
1000
0001
1100
0011
,
0110
1000
0101
0010
,
1001
1000
0100
0010
,
2000
0000
0000
3000
,
1000
0010
0100
0010
,
0002
0000
0000
0003
,
1001
0000
0010
0000
,
0220
0000
0000
0330
,
1000
0001
0010
0100
,
0100
1000
0100
0010
,
1000
1000
0100
0010
,
0002
0000
0000
0003
,
1000
0010
0000
0010
,
0220
0000
0000
0330
,
1001
0001
0000
0100
,
2002
0000
0000
3003
,
1000
0000
0010
0000
,
1001
0000
0010
0000
,
0110
0001
0100
0010
,
0010
0000
0100
0000
,
0001
1000
0010
0100
,
0101
0000
1010
0000
,
0100
0100
0101
0000
,
1001
0000
0110
0000
,
1001
0110
0000
0001
,
0001
0001
0010
0100
,
0010
0001
0010
0100
,
0010
0000
0100
0000
,
1001
0000
0010
0101
,
0010
0000
1010
0100
,
0010
0100
1000
1000
,
0110
0000
0110
0000
,
2002
0000
0000
0000
,
3003
0000
0001
1000
,
0000
0000
0010
0001
,
1000
0200
1000
1300
,
0002
0000
0000
0000
,
1003
0220
0000
0330
,
2002
0000
3003
0110
,
2002
0000
0000
3003
,
0220
0000
0000
0330
,
0001
0000
0010
0000
,
0010
0000
0010
0000
,
1000
0100
1000
1000
,
0001
1000
0001
1000
,
0001
1000
0001
0000
,
1010
0000
1010
0000
,
1010
0000
0101
0000
,
1001
0000
0100
0000
,
1000
0001
0101
0100
,
1001
0110
0110
1001
,
0100
0001
0010
1000
,
1000
0001
0001
0100
,
1000
0001
0100
0100
,
1001
0220
0000
0000
,
0330
1001
0110
1001
,
0000
0010
0010
1000
,
1001
0001
0001
0001
,
0110
1001
0000
0110
,
0100
0002
0000
0000
,
0003
1010
0002
0000
,
0000
0000
0000
0003
,
0110
2002
3003
0110
,
0001
0001
0010
1000
,
0001
0010
0001
0101
,
1000
0001
1000
0000
,
1001
0100
0010
0100
,
1001
0010
0100
1000
,
0100
0010
0001
0010
,
0001
1010
0100
1001
,
0100
0010
0100
0010
,
0001
1000
0001
1000
,
0110
0000
0000
0000
,
0110
0000
0000
0000
,
0110
0000
0000
0000
,
0110
0100
0010
0110
,
0100
0010
0100
0010
,
1000
0000
1000
0000
,
0110
1000
0100
0010
,
1001
1000
0100
0010
,
0002
0000
0000
0000
,
0003
0010
0100
0010
,
2002
0000
0000
3003
,
0000
0001
0000
0100
,
0220
0000
0000
0330
,
1000
0000
0010
0000
,
0110
0000
1000
0001
,
0110
0000
0001
1000
,
0010
0000
1000
0001
,
1000
0010
0100
0010
,
2002
0000
0000
3003
,
1001
0001
1100
0100
,
0220
0000
0000
0330
,
1000
0000
0010
0100
,
0000
1000
0100
0010
,
1001
1000
0100
0010
,
2000
0000
0000
0000
,
3000
0010
0100
0010
,
2002
0000
0000
3003
,
0000
0001
0010
0100
,
0220
0000
0000
0330
,
1000
0001
0010
0100
,
0010
0000
0100
0000
,
1001
0000
0100
0000
,
0110
0000
0000
1000
,
1000
0000
0100
0000
,
2002
0000
0000
3003
,
1001
0000
0010
0000
,
0220
0330
0100
0000
,
1000
0001
0110
0000
,
1001
0000
0000
0110
,
1001
0000
1001
0110
,
2002
0000
0000
3003
,
0220
0000
0000
0330
,
0002
0000
0003
0000
,
2000
0000
3000
0000
,
1001
0002
0000
0000
,
0003
0001
0100
0000
,
1001
0110
2002
0000
,
3003
0110
2002
0000
,
0000
3003
0220
0000
,
0000
0000
0000
0330
,
1000
0000
1000
0000
,
0001
0000
0001
0000
,
0000
0001
0100
0000
,
1001
0000
0000
1001
,
0010
0100
0010
0000
,
0010
0100
0010
0000
,
0100
0010
0100
0000
,
0010
0100
0010
1001
,
0000
1000
0010
1000
,
0001
0001
0100
0001
,
1000
1000
0100
1000
,
0001
0001
0010
0001
,
2002
0000
0000
3003
,
0110
0220
0000
0330
,
1010
2020
0000
3030
,
0202
0000
0303
0101
,
0220
0000
0000
0330
,
2002
0000
0000
3003
,
0001
0000
1000
0001
,
1000
0000
0001
1000
,
0001
0000
0100
0001
,
1000
0000
0100
1000
,
0001
0000
0100
0001
,
1000
0000
0001
1000
,
1001
0000
1001
0000
,
0220
0000
0330
0000
,
1000
0100
0010
0001
,
0001
0010
0100
1000
,
0100
0010
0010
0010
,
1010
0100
0100
0100
,
0001
0100
0010
1000
,
1000
0010
0100
0001
,
2002
0000
0000
3003
,
0220
0000
0000
0330
,
1000
0100
0010
0001
,
0001
0010
0100
1000
,
0100
0010
0000
0010
,
0010
0100
0000
0100
,
0001
0010
0010
1000
,
1000
0100
0010
0001
,
2002
0000
0000
3003
,
0220
0000
0000
0330
,
1001
0100
0010
0001
,
0001
0010
0100
1000
,
0100
0010
0010
0010
,
0010
0100
0100
0100
,
1000
0100
0010
0001
,
0001
0010
0100
1001
,
2002
0000
0000
3003
,
0220
0000
0000
0330
,
1001
0100
0010
0001
,
0001
0010
0100
1000
,
0100
0010
0010
0010
,
0010
0100
0100
0100
,
1000
0100
0010
0001
,
0001
0010
0100
1001
,
2020
0000
0000
0000
,
0000
0000
0000
0000
,
0000
0000
0000
0000
,
0000
0000
0000
3030
,
0110
1001
0000
0010
,
1001
1000
0000
0010
,
2000
0000
0000
0000
,
3000
0010
0100
0010
,
1001
0000
1001
0000
,
1001
0000
1001
0000
,
2002
0000
0000
3003
,
0220
0000
0000
0330
,
0001
0000
0001
0000
,
1000
0000
0000
0000
,
1001
0000
0100
0000
,
1001
0000
0100
0000
,
1000
0001
0100
0100
,
1001
0220
0330
0000
,
1001
0001
0101
1001
,
0110
1001
1001
0110
,
0000
0001
0011
1000
,
0100
0001
0011
1000
,
0100
0010
0001
0001
,
0001
0001
0001
0001
,
0101
1010
0001
0101
,
2000
0000
0000
3000
,
0001
0000
0001
0000
,
0202
0000
0000
0303
,
2200
0000
0000
3300
,
2002
0000
0000
3003
,
0001
0000
0001
0000
,
0202
0000
0000
0303
,
0000
0110
0000
0110
,
0000
0100
0010
0100
,
0000
0010
0100
1000
,
0100
0010
0001
0100
,
0001
1010
0100
1001
,
0100
0010
0100
0010
,
0001
1000
0001
0000
,
1001
0000
0010
0000
,
1001
0000
0100
0000
,
0100
0000
0001
0000
,
1001
0000
0101
0000
,
0100
0000
0100
0000
,
0001
0000
0001
0000
,
1000
0001
0010
0000
,
1000
0000
0010
0001
,
1000
0000
0010
0001
,
1000
0001
0010
0000
,
1001
0000
0000
0000
;

//---------------dance-single - Copied from Copied f----------------
#NOTES:
     dance-single:
     Copied from Copied f:
     Easy:
     1:
     0.317,0.477,0.206,0.249,0.000,531.000,62.000,75.000,0.000,0.000:  // measure 1
0001
0000
0001
0000
,  // measure 2
0001
0100
0010
0100
,  // measure 3
0000
0010
0100
1000
,  // measure 4
0100
0010
0001
0010
,  // measure 5
0000
0010
0100
1000
,  // measure 6
0100
0010
0100
0010
,  // measure 7
1000
1000
1000
1000
,  // measure 8
0001
0010
0100
0010
,  // measure 9
0001
0100
0010
0001
,  // measure 10
0010
0100
1000
0100
,  // measure 11
1000
0100
0010
0010
,  // measure 12
0010
0100
0010
0100
,  // measure 13
0000
0001
0100
0010
,  // measure 14
0010
1000
0101
0000
,  // measure 15
1001
1000
0000
0010
,  // measure 16
2000
0000
0000
0000
,  // measure 17
0000
0000
0000
3000
,  // measure 18
0002
0000
0000
0000
,  // measure 19
0000
0000
0003
0000
,  // measure 20
0220
0000
0000
0330
,  // measure 21
1000
0001
0010
0100
,  // measure 22
0000
1000
0000
0010
,  // measure 23
1000
1010
0000
0010
,  // measure 24
0002
0000
0000
0003
,  // measure 25
1000
0100
0000
0000
,  // measure 26
0220
0000
0000
0330
,  // measure 27
1001
0000
0000
0100
,  // measure 28
2002
0000
0000
3003
,  // measure 29
1000
0000
0010
0000
,  // measure 30
0001
0000
0010
0000
,  // measure 31
0010
0001
0100
0010
,  // measure 32
0010
0000
0100
0000
,  // measure 33
0001
1000
0010
0000
,  // measure 34
0101
0000
0010
0000
,  // measure 35
0100
0100
0100
0000
,  // measure 36
1000
0000
0100
0000
,  // measure 37
1001
0100
0000
0001
,  // measure 38
0001
0001
0001
0100
,  // measure 39
0010
0001
0010
0100
,  // measure 40
0010
0100
0100
0000
,  // measure 41
1001
0000
0000
0100
,  // measure 42
0000
0000
1000
0100
,  // measure 43
0010
0100
1000
0000
,  // measure 44
0100
0000
0010
0000
,  // measure 45
2000
0000
0000
0000
,  // measure 46
3000
0000
0001
1000
,  // measure 47
0001
0000
0110
0000
,  // measure 48
0000
0200
0000
0300
,  // measure 49
0001
0000
0001
0000
,  // measure 50
1000
0200
0000
0300
,  // measure 51
2000
0000
3000
0110
,  // measure 52
2000
0000
0000
3000
,  // measure 53
0020
0000
0000
0030
,  // measure 54
0001
0000
0001
0000
,  // measure 55
0001
0000
0001
0000
,  // measure 56
1000
0000
1000
1000
,  // measure 57
0001
1000
0000
1000
,  // measure 58
0000
1000
0001
0000
,  // measure 59
0010
0000
1000
0000
,  // measure 60
0010
0000
0101
0000
,  // measure 61
0001
0000
0100
0000
,  // measure 62
1000
0001
0001
0100
,  // measure 63
0001
0010
0010
1000
,  // measure 64
0100
0001
0010
1000
,  // measure 65
1000
0001
0001
0100
,  // measure 66
1000
0001
0100
0100
,  // measure 67
1001
0020
0000
0000
,  // measure 68
0030
0001
0010
0001
,  // measure 69
0000
0010
0010
1000
,  // measure 70
0001
0001
0001
0001
,  // measure 71
0010
1001
0000
0010
,  // measure 72
0100
0002
0000
0000
,  // measure 73
0003
0010
0002
0000
,  // measure 74
0000
0000
0000
0003
,  // measure 75
0010
2000
3000
0110
,  // measure 76
0001
0001
0010
1000
,  // measure 77
0001
0010
0001
0001
,  // measure 78
1000
0001
1000
0000
,  // measure 79
1001
0000
0010
0000
,  // measure 80
1001
0010
0000
1000
,  // measure 81
0000
0010
0001
0010
,  // measure 82
0001
1000
0100
1001
,  // measure 83
0100
0000
0100
0000
,  // measure 84
0001
1000
0001
1000
,  // measure 85
0010
0000
0000
0000
,  // measure 86
0100
0000
0000
0000
,  // measure 87
0010
0000
0000
0000
,  // measure 88
0010
0100
0010
0010
,  // measure 89
0100
0010
0100
0010
,  // measure 90
1000
0000
1000
0000
,  // measure 91
0010
1000
0100
0010
,  // measure 92
0001
1000
0100
0010
,  // measure 93
0002
0000
0000
0000
,  // measure 94
0003
0200
0000
0300
,  // measure 95
0002
0000
0000
0003
,  // measure 96
1000
0001
0000
0100
,  // measure 97
0020
0000
0000
0030
,  // measure 98
1000
0000
0010
0000
,  // measure 99
0010
0000
1000
0001
,  // measure 100
0010
0000
0001
1000
,  // measure 101
0010
0000
1000
0001
,  // measure 102
1000
0010
0000
0010
,  // measure 103
0002
0000
0000
0003
,  // measure 104
1001
0001
1000
0100
,  // measure 105
0220
0000
0000
0330
,  // measure 106
1000
0000
0010
0100
,  // measure 107
0000
1000
0100
0010
,  // measure 108
0001
1000
0100
0010
,  // measure 109
2000
0000
0000
0000
,  // measure 110
3000
0010
0100
0010
,  // measure 111
0002
0000
0000
0003
,  // measure 112
0000
0001
0000
1000
,  // measure 113
0020
0000
0000
0030
,  // measure 114
1000
0001
0000
0100
,  // measure 115
0010
0000
0100
0000
,  // measure 116
0001
0000
0100
0000
,  // measure 117
0010
0000
0000
1000
,  // measure 118
1000
0000
0100
0000
,  // measure 119
2000
0000
0000
3000
,  // measure 120
0001
0000
0010
0000
,  // measure 121
0110
0000
0100
0000
,  // measure 122
1000
0001
0010
0000
,  // measure 123
1001
0000
0000
0110
,  // measure 124
0001
0000
1000
0110
,  // measure 125
2000
0000
0000
3000
,  // measure 126
0020
0000
0000
0030
,  // measure 127
0002
0000
0000
0000
,  // measure 128
0003
2000
0000
0000
,  // measure 129
3000
0002
0000
0000
,  // measure 130
0003
0001
0100
0000
,  // measure 131
0001
0010
2002
0000
,  // measure 132
3003
0000
2002
0000
,  // measure 133
0000
3003
0220
0000
,  // measure 134
0000
0000
0000
0330
,  // measure 135
1000
0000
1000
0000
,  // measure 136
0001
0000
0001
0000
,  // measure 137
0000
0001
0100
0000
,  // measure 138
0001
0000
0000
1000
,  // measure 139
0010
0000
0010
0000
,  // measure 140
0010
0000
0010
0000
,  // measure 141
0100
0000
0100
0000
,  // measure 142
0000
0100
0000
1001
,  // measure 143
0000
0000
0010
1000
,  // measure 144
0000
0001
0100
0001
,  // measure 145
1000
0000
0100
1000
,  // measure 146
0001
0000
0010
0000
,  // measure 147
0002
0000
0000
0003
,  // measure 148
0220
0000
0000
0330
,  // measure 149
0000
2020
0000
3030
,  // measure 150
0000
0101
1000
0000
,  // measure 151
0020
0000
0000
0030
,  // measure 152
0002
0000
0000
0003
,  // measure 153
0000
0000
1000
0001
,  // measure 154
1000
0000
0001
1000
,  // measure 155
0001
0000
0100
0001
,  // measure 156
1000
0000
0000
1000
,  // measure 157
0001
0000
0000
0001
,  // measure 158
1000
0000
0001
1000
,  // measure 159
1001
0000
1001
0000
,  // measure 160
0220
0000
0330
0000
,  // measure 161
1000
0000
0010
0000
,  // measure 162
0001
0010
0000
1000
,  // measure 163
0100
0010
0000
0010
,  // measure 164
0010
0100
0100
0100
,  // measure 165
0001
0100
0010
1000
,  // measure 166
1000
0000
0100
0000
,  // measure 167
2002
0000
0000
3003
,  // measure 168
0220
0000
0000
0330
,  // measure 169
1000
0000
0010
0000
,  // measure 170
0001
0000
0100
0000
,  // measure 171
0100
0010
0000
0010
,  // measure 172
0010
0000
0000
0100
,  // measure 173
0000
0010
0010
1000
,  // measure 174
1000
0100
0010
0001
,  // measure 175
2000
0000
0000
3000
,  // measure 176
0020
0000
0000
0030
,  // measure 177
1000
0100
0010
0001
,  // measure 178
0001
0010
0100
1000
,  // measure 179
0100
0010
0010
0010
,  // measure 180
0010
0100
0100
0100
,  // measure 181
0100
0100
0010
0010
,  // measure 182
0010
0010
0000
0000
,  // measure 183
2002
0000
0000
3003
,  // measure 184
0000
0110
0000
0110
,  // measure 185
1001
0100
0000
0001
,  // measure 186
0001
0000
0100
0100
,  // measure 187
0100
0010
0010
0010
,  // measure 188
0010
0100
0100
0100
,  // measure 189
0000
0100
0010
0000
,  // measure 190
0000
0010
0100
0000
,  // measure 191
2020
0000
0000
0000
,  // measure 192
0000
0000
0000
0000
,  // measure 193
0000
0000
0000
0000
,  // measure 194
0000
0000
0000
3030
,  // measure 195
0202
0000
0000
0000
,  // measure 196
0000
0000
0000
0000
,  // measure 197
0000
0000
0000
0000
,  // measure 198
0303
0010
0000
0010
,  // measure 199
1001
0000
1000
0000
,  // measure 200
1001
0000
1000
0000
,  // measure 201
2000
0000
0000
3000
,  // measure 202
0200
0000
0000
0300
,  // measure 203
0001
0000
0000
0000
,  // measure 204
1000
0000
0001
0000
,  // measure 205
0001
0000
0100
0000
,  // measure 206
0001
0000
0100
0000
,  // measure 207
1000
0001
0000
0100
,  // measure 208
1001
0110
0000
0000
,  // measure 209
1001
0000
0101
1001
,  // measure 210
0000
1001
1001
0110
,  // measure 211
0000
0000
0011
1000
,  // measure 212
0100
0000
0011
1000
,  // measure 213
0000
0010
0001
0001
,  // measure 214
0001
0001
0001
0001
,  // measure 215
0001
0010
0001
0001
,  // measure 216
2000
0000
0000
3000
,  // measure 217
0001
0000
0001
0000
,  // measure 218
0002
0000
0000
0003
,  // measure 219
0200
0000
0000
0300
,  // measure 220
2002
0000
0000
3003
,  // measure 221
0000
0000
0001
0000
,  // measure 222
0202
0000
0000
0303
,  // measure 223
0000
0220
0000
0000
,  // measure 224
0000
0000
0000
0000
,  // measure 225
0000
0000
0330
1000
,  // measure 226
0220
0000
0000
0000
,  // measure 227
0000
0000
0000
0000
,  // measure 228
0000
0000
0000
0330
,  // measure 229
0001
1000
0001
0000
,  // measure 230
1001
0000
0010
0000
,  // measure 231
1001
0000
0100
0000
,  // measure 232
0100
0000
0001
0000
,  // measure 233
1000
0000
0001
0000
,  // measure 234
0100
0000
0100
0000
,  // measure 235
0001
0000
0001
0000
,  // measure 236
1000
0001
0000
0000
,  // measure 237
1000
0000
0000
0001
,  // measure 238
1000
0000
0000
0001
,  // measure 239
1000
0001
0000
0000
,  // measure 240
1001
0000
0000
0000
;
